Mira cómo conocí a tu madre en línea temporada 5

LaNetaNeta: Ha habido una gran cantidad de comedias de situaci√≥n fenomenales y comedias con una sola c√°mara hasta ahora a lo largo del siglo XXI, desde el Ver C√≥mo conoc√≠ a tu madre - Season 8 Online Completo, Ver C√≥mo conoc√≠ a tu madre - Season 8 Temporada Online , Ver C√≥mo conoc√≠ a tu madre - Season 8 En Castellano, Latino, Subtitulo. Cuando Ted conoce a Robin (Cobie Smulders), una impresionante joven canadiense que acaba de mudarse a Nueva York, est√° completamente seguro de que es amor a primera vista. Todas la novedades, √ļltimas noticias, curiosidades y secretos de C√≥mo conoc√≠ a vuestra madre. ¬°Descubre toda la informaci√≥n sobre la temporada 5 de C√≥mo conoc√≠ a vuestra madre! C√≥mo conoc√≠ a vuestra madre es una de las historias m√°s reales sobre el amor.

MELANCOL√ćA: CONFLICTO DE IDENTIDAD . - TSpace

Don't have an account yet ? Catched is a part of Edomains. Please signup for your account at Edomains for access to Catched.

Psicologia del Desarrollo - mastor.cl


Bit rate : 103 b/s

Netflix, Hulu, CBS, ESPN, Amazon Prime Video y otros. ¡Ver Cómo conocí a vuestra madre en streaming con NordVPN! Scan type : Progressive Stream size : 15.3 KiB (0%) Stream size : 60.8 MiB (9%) Codec ID/Info : UTF-8 Plain Text Language : Spanish Bit depth : 8 bits Format version : Version 4 File size : 686 MiB Commercial name : Dolby Digital No es de Temporada 7 inglés subtitulada Capitulo 21 "Ahora estamos en paz" Como conocí a tu madre capitulos completos.

VIX

Cuando Ted conoce a Robin (Cobie Smulders), una impresionante joven canadiense que acaba de mudarse a Nueva York, est√° completamente seguro de que es amor a primera vista. Todas la novedades, √ļltimas noticias, curiosidades y secretos de C√≥mo conoc√≠ a vuestra madre. ¬°Descubre toda la informaci√≥n sobre la temporada 5 de C√≥mo conoc√≠ a vuestra madre! C√≥mo conoc√≠ a vuestra madre es una de las historias m√°s reales sobre el amor. Toma el tema m√°s romantizado de la historia, lo romantiza un poco m√°s y luego lo devuelve cruelmente a la realidad. Una visita obligada para las personas que creen en historias de amor poco convencionales.

Anexo:Quinta temporada de How I Met Your Mother .

La serie es producida por Bays & Thomas Como conocí a tu madre capitulos completos, Xochitepec, Morelos, Mexico.

MELANCOL√ćA: CONFLICTO DE IDENTIDAD . - TSpace

Added Value: I'm less of a   Encuentra Como Conoci A Tu Madre Temporadas Completas en MercadoLibre. com.mx! Entre y conozca nuestras increíbles ofertas y promociones. Descubre  Favorito Ficha completa Información ofrecida por mediadata tv. Sinopsis completa - ¡Puede contener spoilers! Ted acaba de conocer a una chica por Internet y  La quinta temporada de "Cómo conocí a vuestra madre" empieza con este episodio en el que Lily obligará a Barney y Robin a enfrentarse a su mayor temor :  Cómo conocí a vuestra Madre, Friends, .

Línea Milk & Honey Gold Leche y Miel de Oro de Oriflame .

por H Melville ¬∑ Mencionado por 57 ‚ÄĒ ver las momias de esas criaturas en sus grandes hornos, que eran las pir√°mides. No: cuando me hago a la mar, voy como simple marinero, delante del m√°stil,¬† El v√≠nculo al piso con el sitio web de alquiler como Airbnb, Wimdu , NY Habitat.